Skip to main content

Club d'Elf Live at Lizard Lounge on 2016-03-11

Audio Preview

etree
Club d'Elf Live at Lizard Lounge on 2016-03-11


Publication date 2016-03-11 (check for other copies)
Collection ClubdElf
Band/Artist Club d'Elf
Set I

01. intro
02. Instar
03. Masada
04. Hamdushi
05. Mogador
06. Dream Wanderer
07. King Kong
08. band intros

Set II

01. intro
02. Loon and Thrush
03. Rais
04. Cha’abi improv
05. Power Plant
06. band intros
07. Shadows Shift
08. band outros

Notes

Club d’Elf
2016-03-11
Lizard Lounge
Cambridge, MA

mics were NOS stage lip DFC

Schoeps mk22>kc5>cmc6>Sonosax SX-R4 &

Soundboard>SX-R4 (24bit/96khz)

WAV>USB>Macbook Pro>Audacity(mixing)>Wave Editor(tracking,fades,resample(izotope)/dither(mbit+)to 16 bit/44.1k)>XAct(FLAC 8,ffp,fix sbe)

Recorded and transferred by Andy Murray

Ed Mann (mallets & percussion)
Amy Bellamy (keyboards)
Van Martin (guitar)
Mister Rourke (turntables)
Mike Rivard (bass & sintir)
Dean Johnston (drums)
Alex Lee Clark (Trumpet)
Brian Thomas (Trombone)

http://clubdelf.com/

length expanded size cdr WAVE problems fmt ratio filename
0:34.46 6105836 B --- -- ----- wav 1.0000 delf2016-03-11.mk22.sbd.sxr4.1644.s1t01.wav
15:14.61 161373116 B --- -- ----- wav 1.0000 delf2016-03-11.mk22.sbd.sxr4.1644.s1t02.wav
11:56.56 126434156 B --- -- ----- wav 1.0000 delf2016-03-11.mk22.sbd.sxr4.1644.s1t03.wav
23:37.22 250010588 B --- -- ----- wav 1.0000 delf2016-03-11.mk22.sbd.sxr4.1644.s1t04.wav
16:34.15 175376924 B --- -- ----- wav 1.0000 delf2016-03-11.mk22.sbd.sxr4.1644.s1t05.wav
21:06.15 223357724 B --- -- ----- wav 1.0000 delf2016-03-11.mk22.sbd.sxr4.1644.s1t06.wav
10:55.11 115567916 B --- -- ----- wav 1.0000 delf2016-03-11.mk22.sbd.sxr4.1644.s1t07.wav
2:02.65 21673724 B --- -- ----- wav 1.0000 delf2016-03-11.mk22.sbd.sxr4.1644.s1t08.wav
0:54.61 9669116 B --- -- ----- wav 1.0000 delf2016-03-11.mk22.sbd.sxr4.1644.s2t01.wav
14:21.71 152047436 B --- -- ----- wav 1.0000 delf2016-03-11.mk22.sbd.sxr4.1644.s2t02.wav
9:42.03 102671900 B --- -- ----- wav 1.0000 delf2016-03-11.mk22.sbd.sxr4.1644.s2t03.wav
5:19.18 56313980 B --- -- ----- wav 1.0000 delf2016-03-11.mk22.sbd.sxr4.1644.s2t04.wav
11:59.65 126984524 B --- -- ----- wav 1.0000 delf2016-03-11.mk22.sbd.sxr4.1644.s2t05.wav
3:07.36 33071516 B --- -- ----- wav 1.0000 delf2016-03-11.mk22.sbd.sxr4.1644.s2t06.wav
8:09.45 86365484 B --- -- ----- wav 1.0000 delf2016-03-11.mk22.sbd.sxr4.1644.s2t07.wav
0:50.42 8918828 B --- -- ----- wav 1.0000 delf2016-03-11.mk22.sbd.sxr4.1644.s2t08.wav
156:27.32 1655942768 B 1.0000 (16 files)

comment
Reviews

There are no reviews yet. Be the first one to write a review.
DOWNLOAD OPTIONS
In Collection
Club d'Elf
In Collection
Live Music Archive
Uploaded by
andyjah
on 3/13/2016
Views
259
SIMILAR ITEMS (based on metadata)
Club d'Elf
by Club d'Elf
etree
eye 90
favorite 0
comment 0
Source: Schoeps mk22/sbd>Sonosax SX-R4
Club d'Elf
by Club d'Elf
etree
eye 112
favorite 0
comment 0
Source: Schoeps mk4v>nbob actives>Naiant PFA>Sonosax SX-R4 & Soundboard>Sonosax SX-R4 (24bit/96khz)
Club d'Elf
by Club d'Elf
etree
eye 91
favorite 0
comment 0
Source: Schoeps mk4v>nbob actives>Naiant PFA>Sonosax SX-R4 & Soundboard>Sonosax SX-R4 (24bit/96khz)
Club d'Elf
by Club d'Elf
etree
eye 126
favorite 0
comment 1
favoritefavoritefavoritefavorite ( 1 reviews )
Source: Schoeps MK22>CMC6>Sonosax SX-M2>Apogee Mini-me(@24 Bit 96khz aes out)>COAX>Edirol R-44
Club d'Elf
by Club d'Elf
etree
eye 82
favorite 0
comment 0
Source: Schoeps MK 22>KC5>CMC6>Sonosax SX-M2>Apogee Mini-me(24 Bit/96 khz,aes out)>COAX>Edirol R-44 +Soundboard>Channels 3&4 Edirol R-44
Club d'Elf
by Club d'Elf
etree
eye 121
favorite 0
comment 0
Source: Schoeps MK22>KC5>CMC6>Sonosax SX-M2>Apogee Mini-me(aes out,24bit/96khz)>COAX>Edirol R-44 + Soundboard>R-44
Club d'Elf
by Club d'Elf
etree
eye 98
favorite 0
comment 0
Source: Schoeps mk4v>Sonosax SX-R4 & Soundboard>Sonosax SX-R4 (24bit/96khz)
Club d'Elf
by Club d'Elf
etree
eye 170
favorite 0
comment 0
Source: Schoeps mk4v>Sonosax SX-R4 & Soundboard>Sonosax SX-R4 (24bit/96khz)
Club d'Elf
by Club d'Elf
etree
eye 74
favorite 0
comment 0
Source: Schoeps mk22/sbd>Sonosax SX-R4 (24bit/96khz)
Club d'Elf
by Club d'Elf
etree
eye 78
favorite 0
comment 1
favoritefavoritefavoritefavorite ( 1 reviews )
Source: Schoeps MK 22>KC5>CMC6>Sonosax SX-M2>Apogee Mini-me(24 Bit/96 khz,aes out)>COAX>Edirol R-44 +Soundboard>Channels 3&4 Edirol R-44